#TITLE:圣少女领域;
#SUBTITLE:Seishoujo Ryouiki;
#ARTIST:ALI  PROJECT;
#TITLETRANSLIT:;
#SUBTITLETRANSLIT:;
#ARTISTTRANSLIT:;
#CREDIT:;
#BANNER:ʥŮ-logo.jpg;
#BACKGROUND:ʥŮ.jpg;
#LYRICSPATH:;
#CDTITLE:Lan.png;
#MUSIC:ʥŮ.mp3;
#OFFSET:-0.040;
#SAMPLESTART:100.000;
#SAMPLELENGTH:12.000;
#SELECTABLE:YES;
#BPMS:0.000=137.070;
#STOPS:;
#BGCHANGES:;
// cache tags:
#FIRSTBEAT:4.000;
#LASTBEAT:282.000;
#SONGFILENAME:Songs/lan sky/the field of holy girl/ʥŮ.sm;
#HASMUSIC:1;
#HASBANNER:1;
#MUSICLENGTH:124.046;
// end cache tags

//---------------dance-single - sky----------------
#NOTES:
     dance-single:
     sky:
     Hard:
     10:
     0.975,1.000,1.000,0.347,0.278,501.000,287.000,43.000,0.000,115.000:

0000
0000
0000
0000
,
2002
0000
0000
0000
0100
0010
0000
0000
,
3223
0000
0000
0000
1000
0001
1000
0000
,
2332
0000
0010
0000
,
3223
0000
0000
0000
0000
0000
0001
1000
0001
0000
0000
0000
0001
0000
0000
0000
,
2332
0000
0000
0000
0100
0010
0000
0000
,
3223
0000
0002
0000
,
2333
0100
0010
0001
,
3002
0000
0000
0000
0010
0000
0000
0000
0100
0000
0000
0000
1000
0100
0010
0000
,
2203
0000
0000
0000
,
3301
0010
0100
1000
0100
0010
0001
0010
0100
1000
0100
0010
0100
1000
0100
0010
,
0001
0010
0100
0010
0001
0010
0100
1000
0100
0010
0001
0010
0100
1000
0100
0010
,
0101
1010
0101
0011
0110
1010
0101
1010
,
2110
0011
0011
0110
0101
0011
0101
0110
,
3011
0110
1010
0101
0110
1001
0101
1010
,
0112
1010
1100
0110
1010
1100
1010
0110
,
1103
0011
1001
0101
1010
0011
1100
0101
,
2011
0110
0011
0101
0110
0011
0101
0110
,
3101
0110
1001
0011
1010
1100
0101
1010
,
0112
1010
1100
0110
1010
1100
1010
0110
,
1103
0000
0101
0000
0110
0110
0110
0000
,
0001
0011
0011
0000
1100
1100
1100
0000
,
1010
1001
1101
1001
1100
1010
1110
1001
,
1000
0010
1100
0001
0010
0100
1001
0010
,
0101
1001
0111
1001
0011
0101
0111
0011
,
1000
0010
0101
0010
0001
0010
1010
0100
,
1010
1001
1101
1010
1100
1010
1011
1100
,
0010
0001
0110
0010
1000
0100
1001
0010
,
0101
0011
1101
0011
0101
1001
1101
0011
,
0100
0010
1100
0001
0010
0100
1001
0100
,
1100
1000
1010
0000
1001
1000
1010
0000
1100
1000
1010
0000
1001
1000
1010
0000
,
0101
0001
1001
0000
0101
0001
0010
0000
0101
0001
1001
0000
0101
0001
0011
0000
,
1100
0100
0110
0000
0101
0100
0110
0000
1100
0100
0110
0000
0101
0100
0110
0000
,
0110
0010
1010
0000
0011
0010
0110
0000
1010
0010
0110
0000
0011
0010
0110
0000
,
1100
1000
1010
0000
1001
1000
1010
0000
1100
1000
1010
0000
1001
1000
1010
0000
,
0101
0001
1001
0000
0101
0001
0011
0000
0101
0001
1001
0000
0101
0001
0011
0000
,
1100
0100
0110
0000
0101
0100
0110
0000
1100
0100
0110
0000
0101
0100
0110
0000
,
0110
0010
1010
0000
0011
0010
0110
0000
1010
0010
0110
0000
0011
0010
0110
0000
,
2100
0010
0001
0010
0100
0010
0001
0010
,
3201
1000
0001
1000
,
0312
0100
1000
0100
0010
0100
1000
0100
,
1023
0001
1000
0001
,
1130
0110
0011
1001
1100
0000
0101
0000
,
0011
0110
1100
1001
0011
0000
1010
0000
,
1200
0010
0001
1000
,
0321
0000
1000
1000
1000
0100
0001
0100
,
0031
0010
0100
1000
0100
0010
0001
0010
0100
1000
0100
0010
0100
1000
0100
0010
,
0001
0010
0100
0010
0001
0010
0100
1000
0100
0010
0001
0010
0100
1000
0100
0010
,
0101
1010
0101
0011
0110
1010
0101
1010
,
2110
0011
0011
0110
0101
0011
0101
0110
,
3011
0110
1010
0101
0110
1001
0101
1010
,
0112
1010
1100
0110
1010
1100
1010
0110
,
1103
0011
1001
0101
1010
0011
1100
0101
,
2011
0110
0011
0101
0110
0011
0101
0110
,
3101
0110
1001
0011
1010
1100
0101
1010
,
0112
1010
1100
0110
1010
1100
1010
0110
,
1003
0100
0010
0000
0011
0000
1100
0000
,
0001
0010
0100
0000
1100
0000
0011
0000
,
1000
0100
0010
0000
0011
0000
1100
0000
,
0022
0000
0000
0133
1000
0100
0010
0001
,
0010
0000
0000
0000
1000
0100
0010
0000
2002
0000
0000
0000
0000
0000
0000
0000
,
0000
0110
0000
0000
,
3223
0000
0001
0001
,
2332
0000
0000
0000
0000
0000
0100
0010
,
3103
1000
0100
0010
1002
0000
0000
0000
,
1003
0000
0100
0000
0001
0010
0100
0000
1100
0000
0110
0000
0011
0000
1001
0000
,
1010
0000
0101
0000
1000
0100
0010
0000
0011
0000
0000
0000
1100
0000
0000
0000
,
0002
0010
0100
1000
,
0000
0000
1000
0010
,
2203
0000
0000
0000
,
0000
0000
3300
0000
;
